FreeTorrents.xyz

Скачать Стрелок / Shooter (2017) WEBRip [H.264/1080p-LQ] (сезон 2, серии 1-5 из 10) OmskBird (обновляемая) [AD]


Стрелок / Shooter (2017) WEBRip [H.264/1080p-LQ] (сезон 2, серии 1-5 из 10) OmskBird
Производство: США
Жанр: боевик, драма

Режиссер: Саймон Селлан Джоунс
Актеры: Райан Филипп, Синтия Аддай-Робинсон, Омар Эппс, Эдди МакКлинток, Темби Лок, Анжелика Кенни, Лекси Колкер, Шон Майкл, Шантель Ван Сантен, Донзали Абернати и др.

Описание:
Главным персонажем является бывший морской пехотинец и снайпер Боб Суэггер. Не по своей воле он оказывается вовлеченным в тайный заговор, главная цель которого заключается в ликвидации американского президента. Догадавшись о том, что его планируют подставить, Боб уходит в бега и готовится к тому, чтобы найти настоящего киллера.


Релиз от: OmskBird

Продолжительность: ~00:42:00 серия
Качество видео: WEBRip
Перевод: Многоголосый закадровый, профессиональный - OmskBird
Субтитры: английские
Реклама: присутствуют аудио вставки рекламы

Видео: AVC/H.264, 1920x1080 (16:9), ~7684 kbps
Аудио #1: AC3, 6 ch, 384 kbps - русский, многоголосый закадровый
Аудио #2: AC3, 6 ch, 384 kbps - английский

Mediainfo:


General
Unique ID : 194765793821655132858588626935915851827 (0x92868706B94D62C0AE67522F6325B033)
Complete name : G:\Films\Shooter.s02.1080p.WEBRip.OmskBird\Shooter.s02E01.1080p.WEBRip.OmskBird.mkv
Format : Matroska
Format version : Version 4 / Version 2
File size : 2.49 GiB
Duration : 42mn 12s
Overall bit rate : 8 454 Kbps
Encoded date : UTC 2017-07-20 07:07:45
Writing application : mkvmerge v12.0.0 ('Trust / Lust') 64bit
Writing library : libebml v1.3.4 + libmatroska v1.4.5
Cover : Yes
Attachments : small_cover.jpg / small_cover_land.jpg / cover.jpg / cover_land.jpg

Video
ID : 1
Format : AVC
Format/Info : Advanced Video Codec
Format profile : High@L4.1
Format settings, CABAC : Yes
Format settings, ReFrames : 4 frames
Codec ID : V_MPEG4/ISO/AVC
Duration : 42mn 11s
Bit rate : 7 684 Kbps
Width : 1 920 pixels
Height : 1 080 pixels
Display aspect ratio : 16:9
Frame rate mode : Constant
Frame rate : 23.976 (24000/1001) fps
Color space : YUV
Chroma subsampling : 4:2:0
Bit depth : 8 bits
Scan type : Progressive
Bits/(Pixel*Frame) : 0.155
Stream size : 2.26 GiB (91%)
Writing library : x264 core 152 r2851 ba24899
Encoding settings : cabac=1 / ref=4 / deblock=1:-3:-3 / analyse=0x3:0x113 / me=umh / subme=8 / psy=1 / psy_rd=1.00:0.15 / mixed_ref=1 / me_range=16 / chroma_me=1 / trellis=2 / 8x8dct=1 / cqm=0 / deadzone=21,11 / fast_pskip=0 / chroma_qp_offset=-2 / threads=12 / lookahead_threads=2 / sliced_threads=0 / nr=0 / decimate=1 / interlaced=0 / bluray_compat=0 / constrained_intra=0 / bframes=3 / b_pyramid=2 / b_adapt=1 / b_bias=0 / direct=3 / weightb=1 / open_gop=0 / weightp=2 / keyint=240 / keyint_min=23 / scenecut=40 / intra_refresh=0 / rc_lookahead=50 / rc=crf / mbtree=1 / crf=17.0 / qcomp=0.60 / qpmin=0 / qpmax=69 / qpstep=4 / ip_ratio=1.40 / aq=3:0.80
Language : English
Default : Yes
Forced : No

Audio #1
ID : 2
Format : AC-3
Format/Info : Audio Coding 3
Mode extension : CM (complete main)
Format settings, Endianness : Big
Codec ID : A_AC3
Duration : 42mn 12s
Bit rate mode : Constant
Bit rate : 384 Kbps
Channel(s) : 6 channels
Channel positions : Front: L C R, Side: L R, LFE
Sampling rate : 48.0 KHz
Frame rate : 31.250 fps (1536 spf)
Compression mode : Lossy
Stream size : 116 MiB (5%)
Title : OmskBird 5.1
Language : Russian
Default : Yes
Forced : No

Audio #2
ID : 3
Format : AC-3
Format/Info : Audio Coding 3
Mode extension : CM (complete main)
Format settings, Endianness : Big
Codec ID : A_AC3
Duration : 42mn 12s
Bit rate mode : Constant
Bit rate : 384 Kbps
Channel(s) : 6 channels
Channel positions : Front: L C R, Side: L R, LFE
Sampling rate : 48.0 KHz
Frame rate : 31.250 fps (1536 spf)
Compression mode : Lossy
Stream size : 116 MiB (5%)
Title : eng
Language : English
Default : No
Forced : No

Text #1
ID : 4
Format : UTF-8
Codec ID : S_TEXT/UTF8
Codec ID/Info : UTF-8 Plain Text
Duration : 34mn 42s
Bit rate : 0 bps
Count of elements : 5
Stream size : 87.0 Bytes (0%)
Title : Forced
Language : English
Default : Yes
Forced : Yes

Text #2
ID : 5
Format : UTF-8
Codec ID : S_TEXT/UTF8
Codec ID/Info : UTF-8 Plain Text
Duration : 41mn 41s
Bit rate : 82 bps
Count of elements : 773
Stream size : 25.2 KiB (0%)
Title : eng
Language : English
Default : No
Forced : No

Подготовка релиза:

Релиз-группа: OmskBird
Перевод: Татьяна Масаковская
Роли озвучивали: Павел Ярощик, Андрей Астров, Алексей Гнеушев, Наталья Ланц
Звукорежиссер: Павел Квентов
Постер: Ксения Просветова

Раздача ведётся путём добавления новых серий:

Раздача ведётся путём добавления новых серий; при каждом добавлении создаётся новый торрент. Чтобы начать докачку новой серии, пользователям необходимо сделать следующее:
(1) остановить скачивание,
(2) удалить старый торрент у себя из клиента (старые серии удалять не надо),
(3) скачать новый торрент и запустить его у себя в клиенте вместо старого, при этом указать клиенту путь в старую папку куда и должно происходить скачивание новых серий.

Ваш клиент при этом должен произвести хеширование (проверку) старой папки (если не производит сам - помогите ему сделать это), и будет докачивать только те серии которых у вас ещё нет. Старые серии при этом не удаляются, а продолжают раздаваться!

Eсли вы уже удалили старые серии, то предотвратить повторную закачку старых серий можно, отжав галочку в соответствующих местах при запуске нового торрента. По возможности, желательно не удалять старые серии как можно дольше чтобы релизёр не столько продолжал раздавать старые серии, а смог сконцентрироваться на новых.
Скриншоты:


Все одноименные релизы в Клубе

Смотреть Online

http://moonwalk.cc/video/31b10fa502d87f6fd957d5db406f3913/iframe
Детали торрента:
Название:Стрелок / Shooter (2017) WEBRip [H.264/1080p-LQ] (сезон 2, серии 1-5 из 10) OmskBird (обновляемая) [AD]
Дата добавления:18 Авг 2017 07:59:44
Размер:15,1 GB
Раздают:14
Качают:9
Форум:Зарубежные сериалы
All rights reserved © 2017 скачать торренты накрутка gta 5 online