FreeTorrents.xyz

Скачать Интервью с Евгением Алексеевичем Фёдоровым / Interview mit Evgeni Aleksejewitsch Fedorov (2014) WEBRip [H.264/720p-LQ]


Интервью с Евгением Алексеевичем Фёдоровым / Interview mit Evgeni Aleksejewitsch Fedorov (2014) WEBRip
Телекомпания: Klagemauer.TV
Жанр: Документальный, Телепередача, Политика

Описание:
24 декабря 2014 года Евгений Алексеевич Фёдоров дал эксклюзивное интервью немецкому каналу Klagemauer TV. Фёдоров - депутат Госдумы РФ, председатель Комитета по экономике и экономической политике в Думе, кандидат экономических наук, основатель и координатор Национально-Освободительного Движения (НОД).

Продолжительность: 00:56:49
Качество видео: WEBRip
Перевод: Не требуется

Видео: AVC/H.264, 1280x720 (16:9), ~4 000 Kbps, 50.000 fps
Аудио #1: AAC, 2 ch, 66.2 Kbps, 48.0 kHz - русский, оригинал
Аудио #2: AAC, 2 ch, 66.2 Kbps, 44.1 kHz - немецкий, двухголосый закадровый
Аудио #3: AAC, 1 ch, 64.6 Kbps, 48.0 kHz - английский, двухголосый закадровый

Mediainfo:


General
Unique ID : 175879492161138997549823798619654606515 (0x845128765636629DA1B5FB3C8B8C4EB3)
Complete name : D:\Film\The Fedorov Interviews_Klagemauer.tv.mkv
Format : Matroska
Format version : Version 4 / Version 2
File size : 1.67 GiB
Duration : 56 min 49 s
Overall bit rate : 4 201 kb/s
Encoded date : UTC 2017-08-09 08:47:52
Writing application : mkvmerge v14.0.0 ('Flow') 64bit
Writing library : libebml v1.3.4 + libmatroska v1.4.5

Video
ID : 1
Format : AVC
Format/Info : Advanced Video Codec
Format profile : Baseline@L1.3
Format settings, CABAC : No
Format settings, RefFrames : 2 frames
Codec ID : V_MPEG4/ISO/AVC
Duration : 56 min 49 s
Bit rate : 4 000 kb/s
Width : 1 280 pixels
Height : 720 pixels
Display aspect ratio : 16:9
Frame rate mode : Constant
Frame rate : 50.000 FPS
Color space : YUV
Chroma subsampling : 4:2:0
Bit depth : 8 bits
Scan type : Progressive
Bits/(Pixel*Frame) : 0.087
Stream size : 1.59 GiB (95%)
Writing library : x264 core 140 r2377 1ca7bb9
Encoding settings : cabac=0 / ref=2 / deblock=1:0:0 / analyse=0x1:0x111 / me=umh / subme=6 / psy=1 / psy_rd=1.00:0.00 / mixed_ref=1 / me_range=16 / chroma_me=1 / trellis=0 / 8x8dct=0 / cqm=0 / deadzone=21,11 / fast_pskip=1 / chroma_qp_offset=-2 / threads=6 / lookahead_threads=1 / sliced_threads=0 / nr=0 / decimate=1 / interlaced=0 / bluray_compat=0 / constrained_intra=0 / bframes=0 / weightp=0 / keyint=250 / keyint_min=25 / scenecut=40 / intra_refresh=0 / rc_lookahead=40 / rc=abr / mbtree=1 / bitrate=4000 / ratetol=1.0 / qcomp=0.60 / qpmin=0 / qpmax=69 / qpstep=4 / ip_ratio=1.40 / aq=1:1.00
Language : Russian
Default : Yes
Forced : No

Audio #1
ID : 2
Format : AAC
Format/Info : Advanced Audio Codec
Format profile : LC
Codec ID : A_AAC
Duration : 56 min 48 s
Bit rate : 66.2 kb/s
Channel(s) : 2 channels
Channel positions : Front: L R
Sampling rate : 48.0 kHz
Frame rate : 46.875 FPS (1024 SPF)
Compression mode : Lossy
Delay relative to video : 21 ms
Stream size : 27.2 MiB (2%)
Title : русский
Language : Russian
Default : Yes
Forced : No

Audio #2
ID : 3
Format : AAC
Format/Info : Advanced Audio Codec
Format profile : LC
Codec ID : A_AAC
Duration : 56 min 49 s
Bit rate : 66.2 kb/s
Channel(s) : 2 channels
Channel positions : Front: L R
Sampling rate : 44.1 kHz
Frame rate : 43.066 FPS (1024 SPF)
Compression mode : Lossy
Stream size : 27.1 MiB (2%)
Title : deutsch
Language : German
Default : No
Forced : No

Audio #3
ID : 4
Format : AAC
Format/Info : Advanced Audio Codec
Format profile : LC
Codec ID : A_AAC
Duration : 56 min 49 s
Bit rate : 64.6 kb/s
Channel(s) : 1 channel
Channel positions : Front: C
Sampling rate : 48.0 kHz
Frame rate : 46.875 FPS (1024 SPF)
Compression mode : Lossy
Stream size : 26.3 MiB (2%)
Title : english
Language : English
Default : No
Forced : No
Скриншоты:



Детали торрента:
Название:Интервью с Евгением Алексеевичем Фёдоровым / Interview mit Evgeni Aleksejewitsch Fedorov (2014) WEBRip [H.264/720p-LQ]
Дата добавления:09 Авг 2017 16:55:16
Размер:1,67 GB
Раздают:5
Качают:0
Форум:Тележурналистика
All rights reserved © 2017 скачать торренты накрутка gta 5 online