FreeTorrents.xyz

Скачать По ту сторону надежды / Toivon tuolla puolen (2017) HDRip [MVO] [AD]


По ту сторону надежды / Toivon tuolla puolen (2017) HDRip
Производство: Финляндия, Германия
Жанр: Драма, Комедия

Режиссер: Аки Каурисмяки
Актеры: Вилле Виртанен, Кати Оутинен, Томми Корпела, Сакари Куосманен, Шерван Хаджи, Нироз Хаджи, Йорн Доннер, Мирья Оксанен, Мария Ярвенхельми, Танели Мякеля

Описание:
Где-то на окраине «асфальтовых джунглей» Хельсинки судьба сводит честного малого Каледа, потерявшего родину и близких, и бывшего коммивояжера Викстрёма, вложившего весь свой капитал в покупку убыточной забегаловки. Меланхоличный Викстрём и команда его эксцентричных работников берутся опекать нового знакомого. Пока Калед занят поисками пропавшей сестры, его новые друзья ищут способы преобразить свой ресторанчик и сделать его популярным заведением.


Дата мировой премьеры: 25 января 2017
Дата российской премьеры: 7 декабря 2017, «Русский Репортаж»

Продолжительность: 01:42:30
Качество видео: HDRip
Перевод: Многоголосый закадровый, профессиональный
Субтитры: отсутствуют
Реклама: присутствуют аудио и видео вставки рекламы

Видео: Xvid, 720x384 (1.85:1), ~1830 Kbps
Аудио: AC3, 2 ch, 192 Kbps

Mediainfo:


General
Complete name : D:\Zona Downloads\Thee.Other.Side.of.Hope.2017.P.HDRip.1.45GB.avi
Format : AVI
Format/Info : Audio Video Interleave
File size : 1.45 GiB
Duration : 1 h 42 min
Overall bit rate : 2 032 kb/s
Writing application : VirtualDubMod 1.5.10.3 (build 2550/release)
Writing library : VirtualDubMod build 2550/release

Video
ID : 0
Format : MPEG-4 Visual
Format profile : Advanced Simple@L5
Format settings, BVOP : 2
Format settings, QPel : No
Format settings, GMC : No warppoints
Format settings, Matrix : Default (MPEG)
Codec ID : XVID
Codec ID/Hint : XviD
Duration : 1 h 42 min
Bit rate : 1 831 kb/s
Width : 720 pixels
Height : 384 pixels
Display aspect ratio : 1.85:1
Frame rate : 24.000 FPS
Color space : YUV
Chroma subsampling : 4:2:0
Bit depth : 8 bits
Scan type : Progressive
Compression mode : Lossy
Bits/(Pixel*Frame) : 0.276
Stream size : 1.31 GiB (90%)
Writing library : XviD 1.2.1 (UTC 2008-12-04)

Audio
ID : 1
Format : AC-3
Format/Info : Audio Coding 3
Format settings, Endianness : Big
Codec ID : 2000
Duration : 1 h 42 min
Bit rate mode : Constant
Bit rate : 192 kb/s
Channel(s) : 2 channels
Channel positions : Front: L R
Sampling rate : 48.0 kHz
Frame rate : 31.250 FPS (1536 SPF)
Bit depth : 16 bits
Compression mode : Lossy
Stream size : 141 MiB (9%)
Alignment : Split accross interleaves
Interleave, duration : 42 ms (1.00 video frame)
Interleave, preload duratio : 500 ms
Service kind : Complete Main
Скриншоты:



Смотреть Online

http://moonwalk.cc/video/0a100c1abaaaebf9/iframe
Детали торрента:
Название:По ту сторону надежды / Toivon tuolla puolen (2017) HDRip [MVO] [AD]
Дата добавления:09 Авг 2017 22:59:01
Размер:1,45 GB
Раздают:51
Качают:1
Форум:Новинки с Рекламой
All rights reserved © 2017 скачать торренты накрутка gta 5 online