FreeTorrents.xyz

Скачать Орел и решка. Перезагрузка (2017.08.08) WEB-DLRip (сезон 14: Неизданное - 2)


Орел и решка. Перезагрузка (2017.08.08) WEB-DLRip (сезон 14: Неизданное - 2)
Телекомпания: ИНТЕР
Жанр: Реалити-шоу, путешествия, география, познавательный

Ведущий: Настя Ивлеева и Антон Птушкин

Описание:
Шесть лет назад команда проекта "Орел и решка" впервые отправилась в большое путешествие по самым интересным городам нашей планеты. За прошедшее время в них столько всего изменилось, что создатели шоу решили приехать сюда снова. "Орел и решка" объявляет перезагрузку! Телезрителей ждет встреча с невиданными чудесами, новыми незабываемыми впечатлениями и самое главное - с новыми ведущими!


Возраст: 12+ (зрителям, достигшим 12 лет)

Релиз от: svlesin
Продолжительность: ~ 00:49:24
Качество видео: WEB-DLRip
Субтитры: Отсутствуют

Видео: MPEG4, XviD, 720x400 (16:9), 25.000 fps, 1 800 Kbps (0.250 bit/pixel)
Аудио: AC-3, 44.1 KHz, 2 ch, 192 Kbps, CBR

Mediainfo:

Код: выделить все
 Общее
Полное имя                               : D:\[1]\Орел и решка\Орел и решка. Перезагрузка (2017.08.08) - Неизданное - 2.avi
Формат                                   : AVI
Формат/Информация                        : Audio Video Interleave
Размер файла                             : 706 Мбайт
Продолжительность                        : 49 м.
Общий поток                              : 1998 Кбит/сек
Название фильма                          : Orel I reshka. Perezagruzka (2017.08.08) - Neizdannoe 2_FreeTorrents.xyz.name
Программа кодирования                    : VirtualDubModRus 1.5.10.2 (build 2542/release)
Библиотека кодирования                   : VirtualDubMod build 2542/release

Видео
Идентификатор                            : 0
Формат                                   : MPEG-4 Visual
Профиль формата                          : Advanced Simple@L5
Параметр BVOP формата                    : 1
Параметр QPel формата                    : Нет
Параметр GMC формата                     : Без точки перехода
Параметр матрицы формата                 : Default (H.263)
Идентификатор кодека                     : XVID
Идентификатор кодека/Подсказка           : XviD
Продолжительность                        : 49 м.
Битрейт                                  : 1800 Кбит/сек
Ширина                                   : 720 пикселей
Высота                                   : 400 пикселей
Соотношение сторон                       : 16:9
Частота кадров                           : 25,000 кадров/сек
Цветовое пространство                    : YUV
Субдискретизация насыщенности            : 4:2:0
Битовая глубина                          : 8 бит
Тип развёртки                            : Прогрессивная
Метод сжатия                             : С потерями
Бит/(Пиксели*Кадры)                      : 0.250
Размер потока                            : 636 Мбайт (90%)
Библиотека кодирования                   : XviD 67

Аудио
Идентификатор                            : 1
Формат                                   : AC-3
Формат/Информация                        : Audio Coding 3
Расширение режима                        : CM (complete main)
Параметр Endianness формата              : Big
Идентификатор кодека                     : 2000
Продолжительность                        : 49 м.
Продолжительность оригинала              : 49 м.
Вид битрейта                             : Постоянный
Битрейт                                  : 192 Кбит/сек
Каналы                                   : 2 канала
Расположение каналов                     : Front: L R
Частота                                  : 44,1 КГц
Битовая глубина                          : 16 бит
Метод сжатия                             : С потерями
Размер потока                            : 67,8 Мбайт (10%)
Выравнивание                             : Разделение по промежуткам
Продолжительность промежутка             : 160  мс. (4,00 видеокадра)
Время предзагрузки промежутка            : 640  мс.
 

В выпуске:

А вот и вторая часть Неизданного от Орёл и Решка. Перезагрузка подоспела! Каково это на самом деле быть ведущим с золотой картой, ТОП-5 самый экстремальных развлечений и самых дорогих отелей сезона по версии Антона Птушкина и Насти Ивлеевой! Сюжеты, который не вошли в эфирные версии передачи. Как наши зрители искали бутылки со 100 долларами. Смотрите от начала до конца, чтобы не пропустить самое интересное!
Скриншоты:


Все одноименные релизы в Клубе
Детали торрента:
Название:Орел и решка. Перезагрузка (2017.08.08) WEB-DLRip (сезон 14: Неизданное - 2)
Дата добавления:10 Авг 2017 11:03:36
Размер:706 MB
Раздают:9
Качают:0
Форум:Клуб кинопутешествий
All rights reserved © 2017 скачать торренты накрутка gta 5 online