FreeTorrents.xyz

Скачать Орел и решка. Перезагрузка (2017.08.08) WEB-DL [H.264/720p-LQ] (сезон 14: Неизданное - 2)


Орел и решка. Перезагрузка (2017.08.08) WEB-DL [H.264/720p-LQ] (сезон 14: Неизданное - 2)
Телекомпания: ИНТЕР
Жанр: Реалити-шоу, путешествия, география, познавательный

Ведущий: Настя Ивлеева и Антон Птушкин

Описание:
Шесть лет назад команда проекта "Орел и решка" впервые отправилась в большое путешествие по самым интересным городам нашей планеты. За прошедшее время в них столько всего изменилось, что создатели шоу решили приехать сюда снова. "Орел и решка" объявляет перезагрузку! Телезрителей ждет встреча с невиданными чудесами, новыми незабываемыми впечатлениями и самое главное - с новыми ведущими!


Возраст: 12+ (зрителям, достигшим 12 лет)

Релиз от: svlesin
Продолжительность: ~ 00:49:24
Качество видео: WEB-DL
Субтитры: Отсутствуют

Видео: AVC, 1280x720 (16:9), 25.000 fps, 1 918 Kbps (0.083 bit/pixel)
Аудио: AC-3, 44.1 KHz, 2 ch, 192 Kbps, CBR

Mediainfo:

Код: выделить все
 Общее
Уникальный идентификатор                 : 253526023855589965164305926481531467958 (0xBEBB560AD0186A1C892060090D4178B6)
Полное имя                               : D:\[1]\Орел и решка\Орел и решка. Перезагрузка (2017.08.08)_720 - Неизданное - 2.mkv
Формат                                   : Matroska
Версия формата                           : Version 4 / Version 2
Размер файла                             : 761 Мбайт
Продолжительность                        : 49 м.
Общий поток                              : 2153 Кбит/сек
Название фильма                          : Орел и решка. Перезагрузка (2017.08.08)_720 - Неизданное - 2_FreeTorrents.xyz.name
Дата кодирования                         : UTC 2017-08-09 17:13:06
Программа кодирования                    : mkvmerge v9.5.0 ('Quiet Fire') 64bit
Библиотека кодирования                   : libebml v1.3.4 + libmatroska v1.4.5
DURATION                                 : 00:49:24.167000000
NUMBER_OF_FRAMES                         : 85104
NUMBER_OF_BYTES                          : 71139996
_STATISTICS_WRITING_APP                  : mkvmerge v9.5.0 ('Quiet Fire') 64bit
_STATISTICS_WRITING_DATE_UTC             : 2017-08-09 17:13:06
_STATISTICS_TAGS                         : BPS DURATION NUMBER_OF_FRAMES NUMBER_OF_BYTES

Видео
Идентификатор                            : 1
Формат                                   : AVC
Формат/Информация                        : Advanced Video Codec
Профиль формата                          : Main@L3.1
Параметр CABAC формата                   : Да
Параметр ReFrames формата                : 3 кадра
Идентификатор кодека                     : V_MPEG4/ISO/AVC
Продолжительность                        : 49 м.
Битрейт                                  : 1918 Кбит/сек
Ширина                                   : 1280 пикселей
Высота                                   : 720 пикселей
Соотношение сторон                       : 16:9
Режим частоты кадров                     : Постоянный
Частота кадров                           : 25,000 кадров/сек
Цветовое пространство                    : YUV
Субдискретизация насыщенности            : 4:2:0
Битовая глубина                          : 8 бит
Тип развёртки                            : Прогрессивная
Бит/(Пиксели*Кадры)                      : 0.083
Размер потока                            : 678 Мбайт (89%)
Default                                  : Да
Forced                                   : Нет
Цветовой диапазон                        : Limited
Основные цвета                           : BT.709
Характеристики трансфера                 : BT.709
Коэффициенты матрицы                     : BT.709

Аудио
Идентификатор                            : 2
Формат                                   : AC-3
Формат/Информация                        : Audio Coding 3
Расширение режима                        : CM (complete main)
Параметр Endianness формата              : Big
Идентификатор кодека                     : A_AC3
Продолжительность                        : 49 м.
Вид битрейта                             : Постоянный
Битрейт                                  : 192 Кбит/сек
Каналы                                   : 2 канала
Расположение каналов                     : Front: L R
Частота                                  : 44,1 КГц
Битовая глубина                          : 16 бит
Метод сжатия                             : С потерями
Размер потока                            : 67,8 Мбайт (9%)
Default                                  : Да
Forced                                   : Нет
 

В выпуске:

А вот и вторая часть Неизданного от Орёл и Решка. Перезагрузка подоспела! Каково это на самом деле быть ведущим с золотой картой, ТОП-5 самый экстремальных развлечений и самых дорогих отелей сезона по версии Антона Птушкина и Насти Ивлеевой! Сюжеты, который не вошли в эфирные версии передачи. Как наши зрители искали бутылки со 100 долларами. Смотрите от начала до конца, чтобы не пропустить самое интересное!
Скриншоты:


Все одноименные релизы в Клубе
Детали торрента:
Название:Орел и решка. Перезагрузка (2017.08.08) WEB-DL [H.264/720p-LQ] (сезон 14: Неизданное - 2)
Дата добавления:10 Авг 2017 11:04:22
Размер:761 MB
Раздают:8
Качают:0
Форум:Клуб кинопутешествий
All rights reserved © 2017 скачать торренты накрутка gta 5 online