FreeTorrents.xyz

Скачать Парашюты на деревьях (1973) DVDRip (серии 1-2 из 2)


Парашюты на деревьях (1973) DVDRip (серии 1-2 из 2)
Производство: CCCР
Жанр: военный

Режиссер: Иосиф Шульман
Актеры: Владимир Смирнов, Александр Январев, Николай Федорцов, Людмила Безуглая, Елена Тодорова, Анатолий Чарноцкий, Анатолий Барчук, Владимир Роговцов, Александр Кузьмин, Николай Крюков и др.

Описание:
О героической деятельности советской разведгруппы под руководством капитана Крылатых на территории Восточной Пруссии в 1944 году.


Возраст: 6+ (зрителям, достигшим 6 лет)

Релиз от: Алехаndr

Продолжительность: ~01:04:00 серия
Качество видео: DVDRip

Видео: Xvid, 720x544 (4:3), ~1438 Kbps
Аудио: AC3, 6 ch, 384 Kbps

Mediainfo:


Общее
Полное имя : D:\Парашюты на деревьях (1973).by.Алехаndr\Серия 1.by.Алехаndr.avi
Формат : AVI
Формат/Информация : Audio Video Interleave
Размер файла : 838 Мбайт
Продолжительность : 1 ч. 3 м.
Общий поток : 1834 Кбит/сек

Видео
Идентификатор : 0
Формат : MPEG-4 Visual
Профиль формата : Advanced Simple@L4
Параметр BVOP формата : 2
Параметр QPel формата : Нет
Параметр GMC формата : Без точки перехода
Параметр матрицы формата : Default (H.263)
Идентификатор кодека : XVID
Идентификатор кодека/Подсказка : XviD
Продолжительность : 1 ч. 3 м.
Битрейт : 1438 Кбит/сек
Ширина : 720 пикселей
Высота : 544 пикселя
Соотношение сторон : 4:3
Частота кадров : 25,000 кадров/сек
Цветовое пространство : YUV
Субдискретизация насыщенности : 4:2:0
Битовая глубина : 8 бит
Тип развёртки : Прогрессивная
Метод сжатия : С потерями
Бит/(Пиксели*Кадры) : 0.147
Размер потока : 657 Мбайт (78%)
Библиотека кодирования : XviD 64

Аудио
Идентификатор : 1
Формат : AC-3
Формат/Информация : Audio Coding 3
Параметр Endianness формата : Big
Идентификатор кодека : 2000
Продолжительность : 1 ч. 3 м.
Вид битрейта : Постоянный
Битрейт : 384 Кбит/сек
Каналы : 6 каналов
Расположение каналов : Front: L C R, Side: L R, LFE
Частота : 48,0 КГц
Частота кадров : 31,250 кадров/сек (1536 SPF)
Битовая глубина : 16 бит
Метод сжатия : С потерями
Размер потока : 175 Мбайт (21%)
Выравнивание : Соединение по промежуткам
Продолжительность промежутка : 32 мс. (0,80 видеокадр)
ServiceKind/String : Complete Main
Скриншоты:


Все одноименные релизы в Клубе
Детали торрента:
Название:Парашюты на деревьях (1973) DVDRip (серии 1-2 из 2)
Дата добавления:10 Авг 2017 11:45:03
Размер:1,67 GB
Раздают:15
Качают:1
Форум:Отечественная Классика. Сериалы и многосерийные Фильмы
All rights reserved © 2017 скачать торренты накрутка gta 5 online